Piccolo ripasso...

La sezione principale

Moderatore: F.Calabrese

Rispondi
F.Calabrese
Messaggi: 33213
Iscritto il: giovedì 23 settembre 2010, 16:18
Località: Roma
Contatta:

Piccolo ripasso...

Messaggio da F.Calabrese » venerdì 12 ottobre 2018, 0:43


geeksAgainstLoudness
Messaggi: 646
Iscritto il: mercoledì 9 novembre 2016, 6:26

Re: Piccolo ripasso...

Messaggio da geeksAgainstLoudness » venerdì 12 ottobre 2018, 0:58

Riporto all’attenzione anche il sito con il database dei DR:
http://dr.loudness-war.info

l_pisani_54
Messaggi: 1299
Iscritto il: martedì 19 ottobre 2010, 9:28
Località: Roma

Re: Piccolo ripasso...

Messaggio da l_pisani_54 » venerdì 12 ottobre 2018, 8:13

Molto interessante, anch'io mi batto da tempo per avere dei dischi incisi decentemente, cioè con la corretta dinamica.
Ricordo che per chi archivia la musica in ambiente Linux, per verificarne l'effettivo valore di DR, c'è l'applicazione DR14 T.meter, che esegue una scansione di tutti i brani presenti in una cartella e crea un file di report con i valori minimi e massimi ed il DR, brano per brano, più il DR medio di tutto l'album.
Ho scoperto che i dischi che ascolto più spesso, a prescindere dal genere e dal contenuto, hanno un DR elevato.
Leonardo

guido310
Messaggi: 516
Iscritto il: martedì 18 agosto 2015, 9:18

Re: Piccolo ripasso...

Messaggio da guido310 » venerdì 12 ottobre 2018, 9:43

Pure io, sono i più piacevoli senza dubbio da ascoltare, poi se hano una cifra artistica elevata è una goduria...tra i miei preferiti annovero

Rachelle Ferrell - Rachelle Ferrell - First Instrument & Individuality

Ray Charles - Genius loves company & Genius&friends

http://dr.loudness-war.info/album/view/113770

http://dr.loudness-war.info/album/list? ... ell&album=

Non per niente vedo ora che hanno DR elevatissimi.... all'ascolto si sentono tutti, se hai un impianto che non comprime...

Nino50
Messaggi: 135
Iscritto il: venerdì 31 marzo 2017, 12:09

Re: Piccolo ripasso...

Messaggio da Nino50 » venerdì 12 ottobre 2018, 11:29

Mi iscrivo senzo dubbio nella categoria "C" e la nota "acquista meno musica" ci sta tutta.
Ho un cd di Eros Ramazzotti in una bella confezione cartonata corredata anche di DVD del live, tutta apparenza.

Guardate il dr14
----------------------------------------------------------------------------------------------
Analyzed: Noi due / Artist: Eros Ramazzotti
----------------------------------------------------------------------------------------------
DR Peak RMS Duration Title [codec]
----------------------------------------------------------------------------------------------
DR5 -0.01 dB -6.67 dB 3:35 01 - Io prima di te* [flac]
DR6 -0.02 dB -8.38 dB 3:53 02 - Noi [flac]
DR5 -0.00 dB -6.62 dB 3:24 03 - Un angelo disteso al sole [flac]
DR6 -0.00 dB -7.74 dB 3:37 04 - Questa nostra stagione [flac]
DR5 -0.00 dB -7.22 dB 3:31 05 - Io sono te (I am you) (feat. Andy Garcia) [flac]
DR5 -0.00 dB -7.53 dB 3:45 06 - Fino all'estasi (feat. Nicole Scherzinger) [flac]
DR6 -0.00 dB -8.44 dB 3:16 07 - Abbracciami [flac]
DR6 -0.00 dB -7.08 dB 3:50 08 - Balla solo la tua musica [flac]
DR7 -0.03 dB -9.71 dB 3:46 09 - Infinitamente [flac]
DR5 -0.00 dB -7.49 dB 3:33 10 - Polaroid [flac]
DR5 -0.00 dB -7.14 dB 3:39 11 - Sotto lo stesso cielo [flac]
DR6 -0.00 dB -8.59 dB 3:50 12 - Una tempesta di stelle [flac]
DR6 -0.00 dB -8.02 dB 4:04 13 - Testa o cuore (feat. Club Dogo) [flac]
DR6 -0.02 dB -9.46 dB 4:16 14 - Cosi' (feat. Il Volo) [flac]
DR6 -0.03 dB -7.57 dB 3:04 15 - Solamente uno (feat. Hooverphonic) [flac]
DR5 -0.00 dB -7.31 dB 3:31 16 - Fino all'estasi (Daddy's Groove remix)* [flac]
DR11 -1.28 dB -15.03 dB 3:12 17 - Noi (Acoustic version)* [flac]
----------------------------------------------------------------------------------------------
Number of files: 17
Official DR value: DR6

Sampling rate: 44100 Hz
Average bitrate: 974kbs
Bits per sample: 16 bit
Dr14 T.meter 1.0.16
==============================================================================================
La traccia n. 17 (dr 11) è l'unica decente.
La traccia n. 16 (Dr 5) (le linee rosse sono i punti in cui clippa) é l'esempio dello scempio fatto dalla compressione dinamica.
Ogni tanto provo ad ascoltarlo, ma non ci riesco, e penso che dovrebbe esserci il ripensamento per l'acquisto o la possibilità di scambiare quattro chiacchere.... con il fonico/genio
Allegati
Screenshot_20181012_111956.jpeg
Screenshot_20181012_111956.jpeg (301.33 KiB) Visto 269 volte
Screenshot_20181012_111144.Jpeg
Screenshot_20181012_111144.Jpeg (305.69 KiB) Visto 269 volte
Saluti
Antonino

geeksAgainstLoudness
Messaggi: 646
Iscritto il: mercoledì 9 novembre 2016, 6:26

Re: Piccolo ripasso...

Messaggio da geeksAgainstLoudness » venerdì 12 ottobre 2018, 11:52

La presa per il c**o assoluta e’ questa: prendete un album recente, versione CD/Download e vinile. CD/Download: DR da schifo. Vinile: DR ottimo.

Stesso album, stesso master. Cosa se ne deduce? Peggioramento ad arte del digitale per promuovere il vinile moderno da 800gr spesso 1cm.

E rendete disponibile il DR buono anche in digitale... altrimenti devo acquistare il vinile e ripparlo.

jurop
Messaggi: 493
Iscritto il: sabato 25 febbraio 2012, 11:36

Re: Piccolo ripasso...

Messaggio da jurop » venerdì 12 ottobre 2018, 12:35

geeksAgainstLoudness ha scritto:
venerdì 12 ottobre 2018, 11:52
La presa per il c**o assoluta e’ questa: prendete un album recente, versione CD/Download e vinile. CD/Download: DR da schifo. Vinile: DR ottimo.
Non è presa per il c**o, è che il vinile suona meglio del digitale, no? Altrimenti come si fa ad ammortizzare gli spiccioli spesi per rimettere in sesto i torni e le presse per ristampare e per rincorrere le mode???

Rispondi